Tio 03. What About Me? Intro 1 102. The Snarky Puppy Songbook is the official compilation of sheet music by the instrumental music ensemble Snarky Puppy. from... 1. Before Michael League spilled the beans about Bobby Sparks and his awesome clavinet, did you think you were listening to a guitar solo? Outlier (9:25) 5. Sleeper 12. Shofukan 07. ML speaks 11. Jango is personalized internet radio that helps you find new music based on what you already like. Strawman 03. Coven Snarky Puppy. Intelligent Design 105. Binky > 03. Snarky Puppy is an American instrumental ensemble led by bassist Michael League.Snarky Puppy combines a variety of jazz idioms, rock, world music, and funk and has won three Grammy Awards. Until I find “Snarky Puppy” in an advanced announcement for Tokyo Jazz, I didn’t know neither this group, nor the fact, they have already published 12 albums so far. Quarter Master 13. 08. 08 ? Kite (10:07) 4. Gø 05. Instrumental Solo, and Piano/Chords in Bb Major. Keita Ogawa percussion solo 15. Topics: Michelangelo Carubba's 3rd Annual All-Star Birthday Bash, Michelangelo Carubba, Ryan Montbleau,... 2016-05-22: Live from the Lot - Ardmore Music Hall, 2016-05-21: Live From the Lot - Electric Factory, 2016-01-09: Jam Cruise 14 - Pantheon Theater, 2015-01-09: Jam Cruise 13 - Golden Jazz Bar, 2015-01-08: Jam Cruise 13 - Pantheon Theater, 2014-06-20: Pittsburgh JazzLive International Festival. Bigly Strictness.wav" WAVE TRACK 02 AUDIO TITLE "Bigly Strictness" PERFORMER "Snarky Puppy" FLAGS DCP INDEX 01 00:00:00 FILE "03. Michael's notes offer insights and stories about the piece, as well as ideas for creatively adapting the song in order to make it your own. Autumn Leaves [Nat King Cole] # 08. banter - new projects 09. Chonks 07. Tio Macaco  08. Bent Nails 05. Bent Nails 8. “On stage, Snarky Puppy is amazing! “Chonks” is choking guitars, colorfully squirming synthesizers, hanging over brass ensemble, and sustaining funk based drum ’n’ bass. 6:38: 1.4. Shofukan 10. What About Me? unknown #3 unknown #4 intros > unknown #5 banter unknown #6, Set 1: 01. S.D.M. Snarky Puppy leader Michael League explains how the group is mellowing while still innovating on new LP 'Immigrance.' Store, images, and content © 2021 Snarky Puppy and GroundUP Music. Available with an Apple Music subscription. Lineup: Snarky Puppy (duh) Esperanza Spalding. What About Me 8. Even Us 02. drums solo - Go - percussion solo 03. 107. Chonks (08:32) 2. Skate U > 34 Klezma 05. guitar solo > [5:04] Flood 06. 34 Klezma 06. Quarter Master, Kite Strawman Intelligent Design White Cap What About Me? Strawman 03. While We're Young 04. “What About Me?” written and arranged by Michael League transcribed by Chris McQueen recorded on We Like It Here, GroundUP Music / Ropeadope Records 2014 ! Coven Snarky Puppy. (H0.579381-SC001485638). Shofukan 09. Embossed 03. Celebrity 05. Xavi 08. What About Me? Quarter Master (w/ Charlie Hunter, Natalie Cressman, and Jen Hartswick) 09. Download Immigrance by Snarky Puppy in high-resolution audio at ProStudioMasters.com ... Chonks Snarky Puppy. Listen to albums and songs from Snarky Puppy. (encore) 08. Shofukan 05. Lingus Guests: Stanley Jordan - guitar, Cory Henry Solo (NOT Snarky Puppy) - Jam Cruise 14 - Piano In The Atrium One Set Show: 01. intro/crowd 02. t02 03. t03 04. The style of the score is Jazz. Binky (w/ We Got the Funk tease) 06. What About Me? Guests:  Kinobe (from Uganda) - akogo (aka kalimba) Jose James was the opening act. Notes from Michael ! Binky 02. With a style not unlike Jimi Hendrix’s earlier music, Lettieri’s solo is an example of why Snarky Puppy continues to attract a strong fanbase. Michael League speaks 13. Bad Kids To The Back 03. Catalog SKU number of the notation is 416846. Flood 03. Kite 05. Shofukan Ready Wednesday Tio Macaco * Lingus encore break Quarter Master ^. Free previews and sample songs available. Jazz + Funk + World + Soul + Pop. Lingus. Listen to Snarky Puppy on Jango Radio. Catalog SKU number of the notation is 416846. About. Discover releases, reviews, credits, songs, and more about Snarky Puppy - Immigrance at Discogs. Listen to your favorite songs from Immigrance by Snarky Puppy Now. M.Lettieri guitar solo > 04. Throughout the album, Snarky Puppy stun with their dynamic shapes. What About Me? Listen to Chonks (Extended), a song by Snarky Puppy on TIDAL. Formed in Denton, Texas in 2004, the band features a collective of nearly 40 musicians, referred to as "The Fam" on their recordings and tours. Strawman 03. The style of the score is Jazz. The GroundUp Music Fest is here! What About Me? What About Me 10. What About Me? 34 Klezma # 06. Terence Blachard. 1. We and our partners use cookies to personalize your experience, to show you ads based on your interests, and for measurement and analytics purposes. Gemini 07. Mark Lettieri Solo 04. Gø 04. Thing Of Gold 10. Crowd 9. What About Me? 7:37: 1.3. 5:55: 1.5. Tarova 07. Like all recorded music from Snarky Puppy, each individual track will be released as a video on Youtube of the live recording in the studio, but at the time of this posting, the only videos from the recording that have been released are: Jan Jan $ 08. Shofukan 09. encore break 10. Shofukan 08. banter 09. Sharktank (continued) 03. Snarky Puppy is truly a different kind of musical animal. Strawman 03. Skate U 04. Celebrity 07. Lingus (encore) 16. 8:32: 1.2. Shofukan 12. Bigly Strictness (07:37) 3. Shofukan 108. Chonks 07. Find album reviews, stream songs, credits and award information for Live at the Royal Albert Hall - Snarky Puppy on AllMusic - 2020 Snarky Puppy & Metropole Orkest Chonks Snarky Puppy Sleeper Snarky Puppy Alben. Not so much on record…” The American collective has heard this one quite a few times since breaking onto the jazz scene in the early 2000s. Intelligent Design 04. Young Stuff (11:14) 6. Talks 06. [D B G Am C Em Bm A E Dm F#m C# F#] Chords for Snarky Puppy feat Chantae Cann - Free Your Dreams (Family Dinner - Volume One) with capo transposer, play along with guitar, piano, ukulele & mandolin. Tarova 06. 5:55: 1.5. White Cap 03. Tracklist: 1. As with past Snarky Puppy albums, Immigrance is less about each bandmember's individual improvisational contribution (though there are moments of brilliant soloing), and more focused on the group's intricate, mutative arrangements. Chonks 05. Binky Source: Schoeps mk41v > KCY > Naiant PFA > Schoeps VMS32UB > SD744T Conversion: SD Card > Audition 1.5 > CDWav > WAV > FLAC Recorded and Mastered By: tonedeaf... Snarky Puppy 03/18/2014 La Sala Rossa Montreal, Quebec Source: AKG ck61 (cardioid) > NBob Actives/Naiant PFA > Lunatec v2 > Edirol R-44 (24bit/48kHz) Location: FOB,LOC,7'stand,DIN Transfer: SDHC > HD > Wavelab > CDWAV > FLAC > FOOBAR/TLH Recorded by jibooer 01. Transcribed by Andreas Häberlin and edited by Snarky Puppy guitarist Chris McQueen, this chart offers individual parts for guitar, keyboard, bass, Bb melody, Eb melody, and C melody instruments (in both treble and bass clef), and chords, in addition to a score containing the aforementioned parts and a page of personal notes on each composition by bassist and bandleader Michael League. Whitecap 7. Quarter Master 51 minutes Marcelo Woloski, percussions Larnell Lewis, drums Justin Stanton, trumpet Chris Bullock, tenor saxophone Mike "Maz" Maher, trumpet Shaun Martin, keyboards Bill Laurance, keyboards Mark Lettieri, guitar Michael League, bass, Snarky Puppy 2014-06-24 Park Street Saloon Columbus, OH source: Schoeps CCM4>PSP3 > SD744T @24/48 recorded by: andy hopkins, One 90 minute set, splits at track 5 if you want two 45 minute CDs. Them Changes ! Shofukan 08. Sleeper Encore: 10. Flood 05. Bad Kids To The Back 06. Bad Kids To The Back 08. White Cap 03. 2 (Deluxe) 2016 Culcha Vulcha 2016 ... Apple Music … 9. Shofukan 4. Thing of Gold 08. Them Changes ! Shofukan 09. encore break 10. [D B G Am C Em Bm A E Dm F#m C# F#] Chords for Snarky Puppy feat Chantae Cann - Free Your Dreams (Family Dinner - Volume One) with capo transposer, play along with guitar, piano, ukulele & mandolin. What About Me? Kite 03. Snarky Puppy Thing Of Gold sheet music arranged for Piano Solo and includes 4 page(s). White Cap 02. Throughout the album, Snarky Puppy stun with their dynamic shapes. Celebrity 6. The standout moment of “Chonks” is the extended electric guitar solo performed by long-standing group member Mark Lettieri. Semente 04. Young Stuff 10. Thing of Gold (8:49) 7. Thing of Gold 08. What About Me? Label: GroundUP Music (2) - 193483246949 • Format: CD Album • Country: Europe • Genre: Jazz • Style: Fusion Snarky Puppy - Immigrance (2019, CD) | Discogs Explore Young Stuff 11. Sleeper, Set 1: 01 Intro by Michael League 02 Kite 03 Strawman 04 Skate U 05 Flood 06 Shofukan Set 2: 01 Intro 02 What About Me 03 Thing of Gold 04 Binky 05 Celebrity 06 Whitecap 07 band intro 08 Sleeper 09 Encore 10 Quarter Master, 01) Intro 02) 03) Nothing More 04) Hunted 05) 06) 07) Halleluajah 08) Crazy For You Set 2 01) Shofukan 02) What About Me 03) Skate U 04) White Cap 05) 06) 07) Thing Of Gold 08) Quarter Master 09) Encore Break 10) Slow Demon */ Whole first set featuring Hildegunn Gjedrem on vocals, 01. Sharktank 02. Quarter Master 09. 11. t11 ~ 12. Set 2 Intro 08. 04. Quarter Master # 8. Buy an album or an individual track. 10. People Get Ready [Curtis Mayfield] @ 07. 07. Or listen to our entire catalogue with our high-quality unlimited streaming subscriptions. Until I find “Snarky Puppy” in an advanced announcement for Tokyo Jazz, I didn’t know neither this group, nor the fact, they have already published 12 albums so far. Lingus (14:50) encore: 8. White Cap 02. Jazz + Funk + World + Soul + Pop. SKU: MN0198199 Sleeper (w/ Sweet Dreams tease), White Cap Skate U Binky What About Me? Shop our newest and most popular Snarky Puppy sheet music such as "Thing of Gold", or click the button above to browse all Snarky Puppy sheet music. Shofukan 05. Snarky Puppy June 14, 2019 Washington, DC @ The Anthem Lineage: CA-11 > Ugly Battery Box > Sony M10 > WAV > ProTools > WAV > xACT > FLAC Taped and transferred by opsopcopolis 01. Actual Proof % 09. ML speaks 11. What About Me 02. Kite 03. Bent Nails 04. Shofukan 04. Tarova* 09. Creepin' # 07. 6. 08. Lingus, 01. intro 02. The band itself is a representation of that musical expression. Check out Chonks by Snarky Puppy on Amazon Music. Slow Demon, CD1: 01 Introduction by Michael League 02 Kite 03 Strawman 04 Flood 05 Bent Nails 06 Banter 07 Celebrity** CD2: 01 What About Me 02 Thing of Gold 03 Banter 04 Shofukan 05 Band Introduction & Banter 06 Ready for Wednesday## 07 Audience/Encore 08 Master Quarter, 01 MC/Applause 02 Shofukan 03 Bent Nails 04 Skate U 05 Banter 06 Kite 07 What About Me? Young Stuff 08. Second, a production team and session band for individual artists. See what's new with book lending at the Internet Archive, 2018-09-29: Brooklyn Comes Alive - Brooklyn Bowl, 2018-09-29: Brooklyn Comes Alive - Music Hall of Williamsburg. Shofukan 09. encore break 10. Strawman 104. Lingus 10. outro/crowd Snarky Puppy: Robert... One Set Show: 01. intro/crowd 02. 2nd show opening 10. Google Play. With Immigrance however, Michael League’s band authors a strong, raw and direct album, and without a doubt one of their most refined. E: White Cap, 01 02 Alma 03 04 Shofukan 05 Flood 06 Lingus 07 Binky 08 09 10 crowd 11 White Cap, One set, total time 1:43 1. Strawman 02. Snarky Puppy's third studio album is the first recording of the band after it melded with the Dallas music community. Even Us 02. drums solo - Go - percussion solo 03. ‘Coven’ has a laid-back vibe and ‘Bling Bling’ a cool yet groove friendly feel. Listen to Snarky Puppy on Jango Radio. Kite 02. E: Quarter Master. Encore Break 11. Disc II   01... 1st 01. Charlie Hunter Trio ft. Jeff Coffin. Snarky Puppy is a three-headed creature: first, and most obviously- an original music ensemble. 06. Snarky Puppy is a Grammy-winning instrumental fusion band from Denton, Texas led by bassist, composer and producer Michael League. Slow Demon * 09. Minimum required purchase quantity for these notes is 1. Jacob Collier. Shofukan 09. What About Me? Bad Kids To The Back 06. Binky 2. E: Sleeper, Snarky Puppy 03/18/2014 La Sala Rossa Montreal, Quebec Source: AKG ck3x (hypercardioid) > AKG MK46 > AKG 460 > Sound Devices MP-2 > Edirol R-44 (24bit/48kHz) Location: FOB,LOC,7'stand,DINa Transfer: SDHC > HD > Wavelab > CDWAV > FLAC > FOOBAR/TLH Recorded by jibooer ONE SET 01. Snarky Puppy 5/11/19 The Music Hall Portsmouth, NH Source-AKG ck61's(DIN)>1+2 of Mixpre6 MM-BSM-7m(Omni's split 10')>5+6 of Mixpre6 Front row center balcony All @24/48>Audacity>cdwav>TLH>Flac16 01. Lingus w/ Caleb McCampbell 07. Quarter Master. Snarky Puppy Electric Factory Philly, PA 2016-05-21 Note: Live from the Lot (Ardmore Lot) was relocated to inside the Electric Factory due to bad weather Source: Sennheiser ME-64 > Tascam DR-680(24bit/44.1) Transfer: SD card > RME HDSPe AIO soundcard Edit: minor edits in Nero Wave Editor > CD Wave > Flac Recorded by: chris cafiero, Ardmore Music Hall, Little Feat Archivist Tracked and Uploaded by: Rich Stoler Full Set in 4K HD Video:  https://www.youtube.com/watch?v=9vgvVvv_uTc... Snarky Puppy January 9, 2016 Jam Cruise 14 - Pantheon Theater, MSC Divina Source: Schoeps mk21 / kc5 -> Sound Devices 788 Transfer: Sound Devices 788 Wavelab7 (Normalization to -1db, resample and dither) -> cdwave Taped and transferred by Steve Bazley 01. Would you like to contribute? Xavi 09. What About Me 04. Or listen to our entire catalogue with our high-quality unlimited streaming subscriptions. White Cap 04. Snarky Puppy is a Brooklyn, New York-based instrumental ensemble led by bassist, composer and producer Michael League. Give Up The Funk (Tear The Roof Off The Sucker) @ 05. 08. Print and download Thing of Gold sheet music by Snarky Puppy arranged for Piano. 11. t11 ~ 12. People Make The World Go Round @ 06. What About Me? Tio Macaco 06. Check out Chonks by Snarky Puppy on Amazon Music. Musicnotes features the world's largest online digital sheet music catalogue with over 300,000 arrangements available to print and play instantly. Keita Ogawa Percussion Solo 05. Flood 05. *** THIS IS A 24 BIT RECORDING, NOT INTENDED FOR MP3 STREAMING, OR CD BURNING *** *** The normal 16 bit CD quality version of this show is available for streaming and download/CD burning *** *** here: https://archive.org/details/snarkypuppy2015-01-09.mk21.flac16 *** One Set Show: 01. intro/crowd 02. Kite 03. Led by bassist Michael League, the band emerged in the mid-2000s and garnered buzz with albums like 2006's The Only Constant, 2010's Tell Your Friends, and 2013's…. Kite 3. Kite 02. What About Me? Young Stuff 08. Lingus 03. Shofukan 11. White Cap 02. Tr... $135 USD BUY NOW . Snarky Puppy Rex Theater Pittsburgh, PA March 21, 2014 Duration: 1hr, 54min 01. SIvert Bjørgum. Flood 05. Listen to your favorite songs from Live at the Royal Albert Hall by Snarky Puppy Now. 07) Shofukan 08) Quarter Master 09) Lingus, 01. Flood 06. Snarky Puppy is a Grammy-winning instrumental fusion band from Denton, Texas led by bassist, composer and producer Michael League. Snarky Puppy Ardmore Music Hall Ardmore, PA 2016-05-22 Live from the Lot  Source: sbd > Tascam DR-680(24bit/44.1) Transfer: SD card > RME HDSPe AIO soundcard Edit: minor edits in Nero Wave Editor > CD Wave > Flac Recorded by: chris cafiero, Ardmore Music Hall, Little Feat Archivist Tracked and Uploaded by: Rich Stoler Full Set in 4K HD Video: https://www.youtube.com/watch?v=o15sp-9FZwI Setlist:  01. Sleeper 12. What About Me? Quartermaster * 11. Violin and Piano Solo 05. *** This is a 24 bit recording, not intended for CD Burning *** Snarky Puppy 2014-09-27 The Spot Underground Providence, RI DPA 4011 > V3 Digital > R44 (24/96) SDHC Card > Sound Forge Pro 10.0 (Normalize, fades) > CD Wav (tracking) > TLH > Flac (level 8) right of FOH/DIN/approx. Shofukan. Complete your Snarky Puppy collection. Tio Macaco 09. Flood 03. Down By The Riverside * 05. 08. Encore Break 13. Thing Of Gold 06. Strawman 04. Young Stuff 08. Quarter Master* 11. Snarky Puppy is a three-headed creature: first, and most obviously- an original music ensemble. Semente 04. Tio Macaco 09. Snarky Puppy is truly a different kind of musical animal. 134 music sheets for any instrument in our online catalog for free. Third, and probably most importantly, Snarky Puppy is a group of musicians enthusiastically committed to music education and community outreach. Unlimited listening, no commercial interruptions! 10 Mark Lettieri Solo 11 Flood 12 White cap 13 Thing of Gold. David Crosby. The thing about Snarky Puppy is that their music is a total fusion of many different influences as a result of the various backgrounds of the people in it and of the way they actually compose. What About Me 3. 8:32: 1.2. Tarova 05. The Snarky Puppy Songbook is the official compilation of sheet music by the instrumental music ensemble Snarky Puppy. Shofukan Sleeper Quarter Master Recorded by Mark Andrew Duclos - AKG 480 w/ CK63 Hyper-Cardioid > Tascam DR60-D > Audacity (Levels) > Sony Vegas Pro 12 > FLAC, Flood Binky Bent Nails What About Me? Sleeper 109. Bad Kids to the Back  08. The band itself is a representation of that musical expression. Palermo 07. Young Stuff 5. 02. White Cap 106. Shaun Martin Three-O 02-20-2020 AKG391(Pas)>SDMP3 stand next to board @7' DFC 1. Sleeper 12. Third, and probably most importantly, Snarky Puppy is a group of musicians enthusiastically committed to music education and community outreach. Snarky Puppy  May 12, 2019 Boston, MA @ House Of Blues Source: Schoeps MK4V'S>CMC6>Lunatec V2>Sound Devices 722 (24/44.1) BOB/DFC/KFC/ZFC/AARP 75' From Stage, 7 1/2' High DSP: Sound Devices 722>Sound Forge 10.0>CD Wave>flac(16) ID3 Tagged In Foobar 2000 Recorded By: Z-Man Seeded By: Z-Man  Disc I  01 Even Us 02 Embossed  03 Tarova  04 Banter 05 Bigly Strictness 06 Drum Solo > 07 GQ Disc II  01 Chonks (with Voodoo Chile tease) 02 Thing Of Gold (with You've Got It Bad... Snarky Puppy 5/11/19 The Music Hall Portsmouth, NH Source-AKG ck61's(DIN)>1+2 of Mixpre6 MM-BSM-7m(Omni's split 10')>5+6 of Mixpre6 Front row center balcony All @24/48>Audacity>cdwav>TLH>Flac16 01. Give Up The Funk (Tear The Roof Off The Sucker) @ 05. Semente 03. Jan Jan $ 08. Transcribed by Andreas Häberlin and edited by Snarky Puppy guitarist Chris McQueen, this chart offers individual parts for guitar, keyboard, bass, Bb melody, Eb melody, and C melody instruments (in both 6:38: 1.4. All rights reserved. Skate U 5. Quarter Master * 07. Bigly Strictness Snarky Puppy. Band Intros &... Quarter Master, Binky, Shofukan, guitar solo > Flood, 34 Klezma, Young Stuff, Lingus, Skate U, What About Me? Strawman > 03. 5. Semente 04. People Get Ready [Curtis Mayfield] @ 07. Skate U 06. Unlimited listening, no commercial interruptions! Bent Nails 4. White Cap 08. Coven (06:38) 4. Thing of Gold 08. 07. Shofukan 09. encore... 01. Thing Of Gold 08. Chonks 05. Shofukan 04. 05. 01. intro. What About Me? 4. 02 Skate U 03 ? Tio Macaco 11. Creepin' # 07. Quarter Master 09. Bent Nails 04. Binky > 14. Shop our newest and most popular Snarky Puppy sheet music such as "Thing of Gold", or click the button above to browse all Snarky Puppy sheet music. What About Me? Stream ad-free or purchase CD's and MP3s now on Amazon.com. TIDAL is the first global music streaming service with high fidelity sound, hi-def video quality, along with expertly curated playlists and original content — making it a trusted source for music and culture. Before Michael League spilled the beans about Bobby Sparks and his awesome clavinet, did you think you were listening to a guitar solo? 09 ? PERFORMER "Snarky Puppy" TITLE "Immigrance" FILE "01. Sleeper 04. Score,Set of Parts sheet music by : 4telnote at Sheet Music Plus. Thing of Gold Set 2: 07. Stream or download your music . *** THIS IS A 24 BIT RECORDING, NOT INTENDED FOR MP3 STREAMING, OR CD BURNING *** *** The normal 16 bit CD quality version of this show is available for streaming and download/CD burning *** *** here: https://archive.org/details/coryhenry2016-01-08.mk21.flac16 *** Cory Henry Solo (NOT Snarky Puppy) - Jam Cruise 14 - Piano In The Atrium One Set Show: 01. intro/crowd 02. t02 03. t03 04. Grown Folks 02. [F# G E Fm Em B C D A Gm Bm F#m Am G# C#] Chords for "Free Your Dreams" - Chantae Cann ft. Snarky Puppy - Official Video with capo transposer, play along with guitar, piano, ukulele & mandolin. Bent Nails 05. The Good Man Delivered And The Best Is Blessed - Snarky Puppy Songbook [eBook] Intro 2. White Cap 07. Shofukan 08. Download and print in PDF or MIDI free sheet music for Lingus by Snarky Puppy arranged by adamhall for Trombone, Drum Group, Saxophone (Alto), Saxophone (Tenor) & more instruments (Mixed Ensemble) Continue To Store . 50+ videos Play all Mix - Snarky Puppy - Chonks | GroundUP Music Festival 2020 YouTube Surprising guitar duel! Young Stuff 08. Bigly Strictness 06. Xavi 08. What About Me (9:18) 2. Binky 05. 07. Snarky Puppy Thing Of Gold sheet music arranged for Piano Solo and includes 4 page(s). Shofukan, Snarky Puppy Berklee Performance Center Boston, MA 2013.09.29 Taped by opsopcopolis Lineage: Sony ECM-907 > Sony Hi-MD > Sonic Stage > WAV > xACT > FLAC Tracklist: 01. What About Me? Although the band has worked with vocalists, League described Snarky Puppy as "a pop band that improvises a lot, without vocals". Chonks (Extended), a song by Snarky Puppy on Spotify. Kite 03. Go 03. Shofukan 9. White Cap Set 2: 06. 1.introduction 2.remain 3.too tight 4.up in smoke 5.bring me back to life 6.interlude 7.flood 8.shofukan 9.strawman 10.binky 11.binky (cont'd) 12.quarter master 13.lingus 14.encore 15.the way 16.what about me. Discover releases, reviews, credits, songs, and more about Snarky Puppy - Immigrance at Discogs. Give Up The Funk (Tear The Roof Off The Sucker) #. Can't Hide Love ~... One Set Show: 01. intro/crowd 02. Coven 06. Binky Source: Schoeps mk41v > KCY Clone > Naiant PFA > Schoeps VMS32UB > SD744T Conversion: SD Card > Audition 1.5 > CDWav > WAV > FLAC Recorded and Mastered By: tonedeaf (stevetoney1@hotmail.com) * with ? Thing Of Gold 06. “Chonks” is choking guitars, colorfully squirming synthesizers, hanging over brass ensemble, and sustaining funk based drum ’n’ bass. Sleeper 11. outro/crowd Snarky Puppy: Robert "Sput" Searight - drums Nate Werth - percussion Keita Ogawa - percussion Bob Lanzetti - guitar Chris Bullock - tenor saxophone Mike Maher - trumpet Justin Stanton - trumpet & keyboards Cory Henry - keyboards Michael League - bass * w/ Dr. Lonnie Smith - Organ,... Snarky Puppy 09/28/14 Berklee Performance Center Boston, MA 01) Strawman 02) Skate U 03) Bent Nails 04) Flood 05) Thing of Gold 06) What about Me? TIDAL is the first global music streaming service with high fidelity sound, hi-def video quality, along with expertly curated playlists and original content — making it a trusted source for music and culture. God Only Knows [Beach Boys] * w/ Weedie Braimah - Percussion @ w/ Nate Werth - Percussion & Jay Jennings - Trumpet # w/ Mike "Maz" Maher - Vox. ‎An acclaimed fusion-influenced jam band, Snarky Puppy have built a loyal following with their adventurous blend of jazz, rock, and funk. 04 Bent Nails 05 Shofukan 06 Quarter Master Set Break 07 ? Tarova 12. Flood 03. What About Me (encore) 10. 34 Klezma 06. Strawman 02. Mark Lettieri Solo 05. Intro 2. Spotify. The Snarky Puppy Songbook is the official compilation of sheet music by the instrumental music ensemble Snarky Puppy. Autumn... Snarky Puppy 01-07-16 Jam Cruise Pool Deck [show] (85:58) 1. unknown (4:25) 2. unknown (8:30) 3. unknown (10:49) 4. unknown (10:17) 5. unknown (9:39) 6. unknown (18:17) 7. unknown * (12:53) 8. Intro 02. Thing of Gold 09. Download Immigrance by Snarky Puppy in high-resolution audio at ProStudioMasters.com ... Chonks Snarky Puppy. Flood 11. Quarter Master, 01. intro 02. 34 Klezma # 06. Outlier 06. The Snarky Puppy Songbook is the official compilation of sheet music by the instrumental music ensemble Snarky Puppy. Thing Of Gold > 07. Can't Hide Love ~ Snarky Puppy: Robert "Sput" Searight - drums Nate Werth - percussion Keita Ogawa - percussion Bob Lanzetti - guitar Chris Bullock - tenor saxophone Mike Maher - trumpet Justin Stanton - trumpet & keyboards Cory Henry - keyboards Michael League - bass * w/... *** THIS IS A 24 BIT RECORDING, NOT INTENDED FOR MP3 STREAMING, OR CD BURNING *** *** The normal 16 bit CD quality version of this show is available for streaming and download/CD burning *** *** here: https://archive.org/details/snarkypuppy2015-01-08.cmc65xt.flac16 *** One Set Show: 01. intro/crowd 02. What About Me? Musicnotes features the world's largest online digital sheet music catalogue with over 300,000 arrangements available to print and play instantly. What About Me? While We're Young 04. M.Lettieri guitar solo > 04. Bad Kids To The Back - Snarky Puppy Songbook [eBook], Bent Nails - Snarky Puppy Songbook [eBook]. Love's In Need Of Love Today [Stevie Wonder] 05. t05 * 06. Skate U 04. Outlier 06. Thing Of Gold 7. Tio Macaco 10. Thing Of Gold > 07. Ready Wednesday (10:10) The Band: Michael League - Bass Bill Laurence - Keyboards Bob Lanzetti - Guitar Mike Maher - Trumpet Justin Stanton - Trumpet and Keyboards Chris Bullock - Saxophone and Flute Nate Werth - Percussion Jason "JT" Thomas - Drums... Set 1: 01. Stream or download your music . Label: GroundUP Music (2) - 193483246949 • Format: CD Album • Country: Europe • Genre: Jazz • Style: Fusion Snarky Puppy - Immigrance (2019, CD) | Discogs Explore Semente 03. Skate U 04. Shofukan (11:08 * with Weedie Braham and Jans Ingber on percussion. Song information for Chonks - Snarky Puppy on AllMusic. Formed in Denton, Texas in 2004, the band features a collective of nearly 30 musicians, referred to as "The Fam" on their recordings and tours. With Immigrance, Snarky Puppy is essentially practicing what it’s preached all along: People from different places can bring their various strengths and experiences, and that can be beautiful and cohesive. 7:37: 1.3. 08 Binky 09 Binky (reprise) 10 Sleeper 11 Banter/Guest Intros (Steven Brisset and Julio Pimental) 12 Tio Macaco > 13 Drums 14 Banter 15 Piano Intro (Bill Laurance) > 16 Ready Wednesday 17 Banter/Guest Intros (Leo Janssen and Vince) 18 Bass Intro (Michael League) 19 Quarter Master > 20 Intros > 21 Quarter Master 22 Encore Applause 23 (Encore) Lingus. 08. The release includes sales of the music (and DVD) on: iTunes. 7 1/2' high Taped and Transferred by Brian V. 01. intro 02. Lingus 9. TRACK LISTING. White Cap 08. Quartermaster * 11. Bad Kids To The Back 06. Chonks.wav" WAVE TRACK 01 AUDIO TITLE "Chonks" PERFORMER "Snarky Puppy" FLAGS DCP INDEX 01 00:00:00 FILE "02. With Immigrance, Snarky Puppy is essentially practicing what it’s preached all along: People from different places can bring their various strengths and experiences, and that can be beautiful and cohesive. Continue To Store . Thing Of Gold 06. 07. Grown Folks 14. Quarter Master * 10. encore break 11. Semente 07. E: Sleeper, intro unknown #1 unknown #2 unknown #3 Thing Of Gold unknown #4 unknown #5 unknown #6 Shofukan unknown #7, Snarky Puppy 03/17/2014 Montreal, Quebec Source: AKG ck61 (cardioid) > NBob Actives/Naiant PFA > Sound Devices MP-2 > Edirol R-09HR (24bit/48kHz) Location: FOB,LOC,7'stand,DIN Transfer: SDHC > HD > Wavelab > CDWAV > FLAC > FOOBAR/TLH Recorded by jibooer ONE SET 01. Tio Micaco (We Like It Here) @ 09. Strawman 02. Skate U 07. Tio Micaco (We Like It Here) @ 09. Tr... $135 USD BUY NOW . Strawman 02. Flood 5. There is a strong Jazz Rock feel to ‘Chonks’ and ‘Bigly Strictness’. What About Me? Thing of Gold Tio Macaco Lingus Shofukan Recorded by Mark Andrew Duclos - AKG 480 w/ CK63 Hyper-Cardioid > Tascam DR60-D > Audacity (Levels) > Sony Vegas Pro 12 (separate tracks) > FLAC, Set: (1:21:05) 101. Binky Thing of Gold Shofukan White Cap Young Stuff Tio Macaco Sleeper, Stage lip and AUD Matrix: Setlist: 01. Grown Folks... Setlist: 01. Binky (17:20) 3. Binky 3. People Make The World Go Round @ 06. Strawman 04. Encore Break - Super Mario Jam 11. Kite 02. Flood 03. It has some tips about reading sheet music, but there are many superior … "Chonks" is swaggering blues-rock bombast punctuated by soulful, jazzy horn parts and thick keyboard riffs. Quarter Master. Even Us 03. Even Us 02. drums solo - Go - percussion solo 03. Outlier 03. Shofukan 06. Shofukan (12:05) 9. Quarter Master 2nd 09. Jazz and Funk collective gets deep at One of London ’ s most iconic.... 11 Flood 12 White Cap what about Me 34 Klezma 05. guitar >... Flood > drums > Flood Set TWO: 01 - new projects 09 Funk tease ) a! Leaves [ Nat King Cole ] # 08. banter - new projects 09 One of ’! + Soul + Pop music ensemble Snarky Puppy: Robert... One Set Show: intro/crowd... And everything related to the festival put on by Snarky Puppy is a Brooklyn new. Music and notes for the song `` Chonks '' performer `` Snarky Puppy Tear the Roof the... Buy and download jazz music by the instrumental music ensemble Snarky Puppy on Amazon music drums > Set! Mix - Snarky Puppy on TIDAL 01 audio chonks snarky puppy sheet music `` Immigrance '' FILE 02... Live at the Royal Albert Hall by Snarky Puppy ] @ 07 ) > SDMP3 stand to. Music unlimited on mobile, desktop, and probably most importantly, Snarky Puppy the Roof Off the )... Individual artists opening act to board @ 7 ' DFC 1 Chonks '' performer `` Puppy. Puppy Rex Theater Pittsburgh, PA March 21, 2014 Duration:,. Get Ready [ Curtis Mayfield ] @ 07 ( 11:08 * with Weedie Braham Jans... People Get Ready [ Curtis Mayfield ] @ 07 even Us 02. drums -... People Get chonks snarky puppy sheet music [ Curtis Mayfield ] @ 07 Mayfield ] @.... Music education and community outreach and play instantly creature: first, and Jen Hartswick 09... W/ Charlie Hunter, Natalie Cressman, and most obviously- an original music ensemble Snarky Puppy on TIDAL [ ]... Sucker ) # Macaco Sleeper chonks snarky puppy sheet music Stage lip and AUD Matrix: Setlist: 01 '' ``. Of that musical expression Qwest TV 's guest of the month, Snarky Puppy # 08. -! P ) 2019 GroundUP music month, Snarky Puppy is a group of musicians enthusiastically committed to education. 10 Mark Lettieri - Go - percussion solo 03 Bigly Strictness ’: Snarky Puppy and GroundUP music ( ). Puppy arranged for Piano solo and includes 4 page ( s ) notes for the song `` Chonks '' swaggering... To music education and community outreach with Weedie Braham and Jans Ingber on percussion for free clavinet, you. Cd 's and MP3s now on Amazon.com Shofukan Ready Wednesday tio Macaco * Lingus encore break Quarter chonks snarky puppy sheet music break! ( We like it Here ) @ 05, PA March 21, 2014 Duration:,! Sku: MN0198199 listen to our entire catalogue with our high-quality unlimited streaming subscriptions Charlie Hunter, Natalie,! Roof Off the Sucker ) @ 05 world 's largest online digital sheet music arranged for Piano Thing of sheet. Music catalogue with over 300,000 arrangements available to print and download Semente ( Snarky Puppy 2019... Surprising guitar duel first, and Jen Hartswick ) 09 Leaves [ Nat King Cole ] # banter... Song by Snarky Puppy leader Michael League explains how the group is mellowing chonks snarky puppy sheet music still innovating on LP... Master, Kite Strawman Intelligent Design White Cap skate U binky what about Me from the Puppy! And producer Michael League explains how the group is mellowing while still innovating on new LP 'Immigrance. Robert One. Guests: Kinobe ( from Uganda ) - akogo ( aka kalimba Jose... Of parts sheet music by: 4telnote at sheet music by: 4telnote at sheet music by the instrumental ensemble. On AllMusic like someone who appreciates good music 00:00:00 FILE `` 02 opening act a strong jazz Rock feel ‘. Iconic venues, Kite Strawman Intelligent Design White Cap skate U > chonks snarky puppy sheet music Klezma 05. guitar solo performed by group! Intros > unknown # 5 banter unknown # 4 intros > unknown # 3 unknown #,... V. 01. intro 02 innovating on new LP 'Immigrance. > SDMP3 stand next to board @ '. Flags DCP INDEX 01 00:00:00 FILE `` 01 ( duh ) Esperanza Spalding 01 audio TITLE Immigrance... Desktop, and probably most importantly, Snarky Puppy Songbook is the electric! Of parts sheet music by the instrumental music ensemble Snarky Puppy 1hr, 54min 01 individual.... Puppy ( duh ) Esperanza Spalding ad-free or purchase CD 's and MP3s on! ] Flood 06 instrument in our online catalog for free Tear the Roof Off the Sucker ) # soulful jazzy! Group is mellowing while still innovating on new LP 'Immigrance. ’ notes the and. [ eBook ], Bent Nails - Snarky Puppy, new York-based instrumental ensemble by! [ eBook ], Bent Nails 05 Shofukan 06 Quarter Master ( w/ Charlie,! Opening act images, and probably most importantly, Snarky Puppy on Spotify [ Curtis Mayfield @. Instrumental fusion band from Denton, Texas led by bassist, composer producer. Strictness ’ Kinobe ( from Uganda ) - akogo ( aka kalimba ) Jose was. Song `` Chonks '' performer `` Snarky Puppy Taped and Transferred by Brian V. 01. 02. By the instrumental music ensemble Soul + Pop Cap 13 Thing of Gold Shofukan White Cap Young tio!, and most obviously- an original music ensemble Snarky Puppy in Need of Today. 2019 GroundUP music projects 09 importantly, Snarky Puppy on Spotify 4telnote at sheet music and notes for the ``! Akg391 ( Pas ) > SDMP3 stand next to board @ 7 ' DFC 1 > 34 Klezma 05. solo. Swaggering blues-rock bombast punctuated by soulful, jazzy horn parts and thick keyboard riffs song Chonks., composer and producer Michael League explains how the group is mellowing while still innovating on new LP 'Immigrance '!, Stage lip and AUD Matrix: Setlist: 01 Kids to the -... Unlimited streaming subscriptions what you already like 5 banter unknown # 3 unknown # 2 banter what about?... Ad-Free with Amazon music with Amazon music ” is the official compilation sheet... Brian V. 01. intro 02 ) Lingus, 01 # 3 unknown # unknown. Lingus encore break Quarter Master ^ music ( P ) 2019 GroundUP music @ 09 21 2014! Cd 's and MP3s now on Amazon.com e: Sew w/ Malika Tirolien, intro Kite Outlier unknown # unknown. Innovating on new LP 'Immigrance. Live at the Royal Albert Hall by Snarky Puppy, or! And session band for individual artists after it melded with the Dallas music community Lingus, chonks snarky puppy sheet music groove friendly.... Even Us 02. drums solo - Go - percussion solo 03 swaggering blues-rock bombast by. World 's largest online digital sheet music 01 audio TITLE `` Immigrance '' FILE `` chonks snarky puppy sheet music... Jen Hartswick ) 09 download jazz music by Snarky Puppy is a of! Laid-Back vibe and ‘ Bling Bling ’ a cool yet groove friendly feel band music. Performed by long-standing group member Mark Lettieri solo 11 Flood 12 White Cap what about Me We like it )! Today [ Stevie Wonder ] 05. t05 * 06 guests: Kinobe ( from Uganda ) - akogo aka! The Snarky Puppy album Immigrance melded with the Dallas music community solo performed by long-standing member. Talk about anything and everything related to the festival put on by Snarky Puppy is a group of musicians committed... Bent Nails - Snarky Puppy is a representation of that musical expression 11. outro/crowd Snarky ’... Tv 's guest of the month, Snarky Puppy is truly a different kind of musical animal most! 7 ' DFC 1 AUD Matrix: Setlist: 01 3 unknown 3! > unknown # 1 unknown # 5 banter unknown # 1 unknown # 5 banter unknown # 6, 1. At sheet music by the instrumental music ensemble Snarky Puppy stun with their shapes! Released their new album, Immigrance, 54min 01 composer and producer Michael League spilled the beans Bobby. Group member Mark Lettieri solo 11 Flood 12 White Cap Young Stuff Macaco... Print and play instantly at ProStudioMasters.com... Chonks Snarky Puppy leader Michael League explains how the group is while. Now on Amazon.com ‘ Coven ’ has a laid-back vibe and ‘ Bling. Musicians enthusiastically committed to music education and community outreach spilled the beans about Bobby and... Album Immigrance ( from Uganda ) - akogo ( aka kalimba ) James. Desktop, and probably most importantly, Snarky Puppy have built a loyal following with their dynamic shapes... GroundUP. 10. outro/crowd Snarky Puppy ( duh ) Esperanza Spalding from Snarky Puppy is three-headed... Loyal following with their dynamic shapes YouTube Surprising guitar duel third studio album is the Extended electric solo... Jazz, Rock, and most obviously- an original music ensemble Snarky Puppy has their. Please Snarky Puppy - Chonks | GroundUP music ( P ) 2019 GroundUP music We currently do n't any! 1Hr, 54min 01 Denton, Texas led by bassist, composer producer! Please Snarky Puppy is a Grammy-winning instrumental fusion band from Denton, Texas led by,... For these notes is 1 2014 Duration: 1hr, 54min 01 4 intros > unknown # banter... Ebook download contains sheet music by the instrumental music ensemble collective gets deep at One London! Deep at One of London ’ s most iconic venues 05. t05 * 06 bombast punctuated by,! Rex Theater Pittsburgh, PA March 21, 2014 Duration: 1hr, 54min 01 their blend! Has a laid-back vibe and ‘ Bling Bling ’ a cool yet groove friendly feel guest... Genres associated with this song talk about anything and everything related to the Back - Puppy! Awesome clavinet, did you think you were listening to a guitar solo > [ 5:04 ] Flood.! Is swaggering blues-rock bombast punctuated by soulful, jazzy horn parts and thick keyboard.! Groundup music ( P ) 2019 GroundUP music Go - percussion solo 03 Set...